Torrent


arrow-s01e07-08-bdrip-x264-ac3-lektor-pl


Kategoria: Seriale / Zagraniczne | Rozmiar: 3.71 GB | Dodany: 2014-01-26 11:21
Tagi: Arrow S01E07 08 BDRip X264 AC3 Lektor PL Seriale Zagraniczne Torrent

Arrow S01E07-08 [BDRip] [X264] [AC3] [Lektor PL]


Opis Pliku Torrent




produkcja: USA
gatunek: Dramat, Przygodowy, Sci-Fi
premiera: 10 pażdziernik 2012 (USA)
reżyseria: David Nutter, David Barrett
scenariusz: Greg Berlanti, Marc Guggenheim, Andrew Kreisberg
czas trwania: ok. 42 min.

OPIS FILMU

Serial "Arrow" to współczesna historia Zielonej Strzały, superbohatera komiksów DC Comics. Po 5 latach od katastrofy morskiej miliarder Oliver Queen, jak dotąd uznawany za zmarłego, zostaje odnaleziony na bezludnej wyspie na Pacyfiku. Kiedy powraca do domu, rodzina zauważa, że pobyt na wyspie bardzo go odmienił. Oliver próbuje pojednać się z najbliższymi i swoją byłą dziewczyną Laurel Lance, jednocześnie kreując swoją sekretną tożsamość. Odtąd za dnia Oliver jest bogatym, beztroskim i nieostrożnym kobieciarzem, jakim zwykł być, natomiast pod osłoną nocy jako Zielona Strzała walczy ze złem i stara się przywrócić miasto do jego dawnej świetności.

OBSADA

Stephen Amell: Oliver Queen / Green Arrow
David Ramsey: John Diggle
Susanna Thompson: Moira Queen
Katie Cassidy: Dinah "Laurel" Lance
Jamey Sheridan: Robert Queen
Brian Markinson: Adam Hunt
Colin Donnell: Tommy Merlyn
Nneka Croal: Danielle Didio
Annie Ilonzeh: Joanna
Colin Salmon: Walter Steele

DANE TECHNICZNE

Format : Matroska
Format version : Version 2
File size : 1.85 GiB
Duration : 42mn 11s
Overall bit rate : 6 277 Kbps

Video
ID : 1
Format : AVC
Format/Info : Advanced Video Codec
Format profile : High@L4.1
Format settings, CABAC : Yes
Format settings, ReFrames : 5 frames
Codec ID : V_MPEG4/ISO/AVC
Duration : 42mn 11s
Bit rate : 5 892 Kbps
Width : 1 280 pixels
Height : 720 pixels
Display aspect ratio : 16:9
Frame rate mode : Constant
Frame rate : 23.976 fps
Color space : YUV
Chroma subsampling : 4:2:0
Bit depth : 8 bits
Scan type : Progressive
Bits/(Pixel*Frame) : 0.267
Stream size : 1.70 GiB (92%)
Writing library : x264

Audio
ID : 2
Format : AC-3
Format/Info : Audio Coding 3
Mode extension : CM (complete main)
Format settings, Endianness : Big
Codec ID : A_AC3
Duration : 42mn 11s
Bit rate mode : Constant
Bit rate : 384 Kbps
Channel count : 2 channels
Channel positions : Front: L R
Sampling rate : 48.0 KHz
Bit depth : 16 bits
Compression mode : Lossy
Stream size : 116 MiB (6%)
Language : Polish


Filmy bez limitów
REKLAMA : torrent, warez, wstawiaj, upload, linki warez

ADT Torrent
stat4u portal pozycjonowany na frazy : polskie torrenty, darmowe torrenty, torrent, torrenty, bittorrent, warez, upload. Projekt i wykonanie torren.pl © Wszelkie prawa Zastrzeżone